2 sonutan 1 ile 2 aras
  1. #1
    ye missyou - ait Kullanc Resmi (Avatar)
    yelik tarihi
    20.08.2016
    Mesajlar
    52.546
    Konular
    0
    Blm
    Bilgisayar
    Cinsiyet
    Kadn
    Tecrbe Puan
    56

    South Bend Workshop DVD Set with Moshe Feldenkrais (1980)



    South Bend Workshop DVD Set with Moshe Feldenkrais
    4xDVDRip's | English | M4V | 720 x 480 | AVC ~700 kbps | 29.923 fps
    AAC | 132 Kbps | 48.0 KHz | 2 channels | 09:46:34 | 3.41 GB
    Genre: eLearning Video / Healthcare, Rehabilitation
    The South Bend Workshop with Moshe Feldenkrais is as close to a live experience of Feldenkraiss teaching as you can get today. It is currently the only workshop Feldenkrais taught for the public where you have the video image to go with the audio. Its wonderful to observe how Feldenkrais weaves together the movement experiments with the inspirational ideas that are at the core of the Feldenkrais Method. We recommend this DVD for people with prior Awareness Through Movement experience.

    The years of 1980 and 1981 were arguably the most creative and generative years in Dr. Moshe Feldenkrais teaching career and they also mark the final years that he taught workshops open to the public . This two and a half day weekend workshop, conducted in South Bend, Indiana in 1980, finds Feldenkrais in top form. The workshop is oriented to the beginning student, yet the lessons are uniquely constructed and will offer new perspectives for more experienced students at all levels. You will find it fascinating to experience how Feldenkrais is able to bring a group with a wide range of abilities and ages to a level where they are able to successfully perform challenging Awareness Through Movement lessons. Throughout the weekend Feldenkrais masterfully interweaves his wide ranging ideas about human potential, learning, psychology, development and the plasticity of the brain, with his movement lessons. The audio quality of this course is very good, and though the video picture is mainly black and white and not up to todays standards, it is still clear and easy to follow. The South Bend workshop is the only public workshop taught by Dr. Feldenkrais currently available on DVD.

    also You can find my other helpful
    Kod:
    https://rapu.world/search/?category_slug=&query=Rehabilitation&language=&age=&author=ParRus&search=1
    Rehabilitation-posts

    General
    Complete name : South Bend 3 of 4.m4v
    Format : MPEG-4
    Format profile : Base Media / Version 2
    Codec ID : mp42 (mp42/isom/avc1)
    File size : 637 MiB
    Duration : 1 h 46 min
    Overall bit rate mode : Variable
    Overall bit rate : 835 kb/s
    Encoded date : UTC 2016-07-23 01:24:27
    Tagged date : UTC 2016-07-23 01:34:50

    Video
    ID : 1
    Format : AVC
    Format/Info : Advanced Video Codec
    Format profile : Main@L4
    Format settings : CABAC / 4 Ref Frames
    Format settings, CABAC : Yes
    Format settings, RefFrames : 4 frames
    Codec ID : avc1
    Codec ID/Info : Advanced Video Coding
    Duration : 1 h 46 min
    Bit rate : 700 kb/s
    Width : 720 pixels
    Height : 480 pixels
    Display aspect ratio : 3:2
    Frame rate mode : Variable
    Frame rate : 29.923 FPS
    Minimum frame rate : 0.200 FPS
    Maximum frame rate : 29.970 FPS
    Color space : YUV
    Chroma subsampling : 4:2:0
    Bit depth : 8 bits
    Scan type : Progressive
    Bits/(Pixel*Frame) : 0.068
    Stream size : 533 MiB (84%)
    Writing library : x264 core 130 r2273 b3065e6
    Encoding settings : cabac=1 / ref=1 / deblock=1:0:0 / analyse=0x1:0x111 / me=hex / subme=2 / psy=1 / psy_rd=1.00:0.00 / mixed_ref=0 / me_range=16 / chroma_me=1 / trellis=0 / 8x8dct=0 / cqm=0 / deadzone=21,11 / fast_pskip=1 / chroma_qp_offset=0 / threads=12 / lookahead_threads=3 / sliced_threads=0 / nr=0 / decimate=1 / interlaced=0 / bluray_compat=0 / constrained_intra=0 / bframes=3 / b_pyramid=2 / b_adapt=1 / b_bias=0 / direct=1 / weightb=1 / open_gop=0 / weightp=1 / keyint=240 / keyint_min=24 / scenecut=40 / intra_refresh=0 / rc_lookahead=10 / rc=2pass / mbtree=1 / bitrate=700 / ratetol=1.0 / qcomp=0.60 / qpmin=0 / qpmax=69 / qpstep=4 / cplxblur=20.0 / qblur=0.5 / vbv_maxrate=20000 / vbv_bufsize=25000 / nal_hrd=none / ip_ratio=1.40 / aq=1:1.00
    Encoded date : UTC 2016-07-23 01:24:27
    Tagged date : UTC 2016-07-23 01:34:49
    Color range : Limited
    Color primaries : BT.601 NTSC
    Transfer characteristics : BT.709
    Matrix coefficients : BT.601
    Menus : 3

    Audio
    ID : 2
    Format : AAC
    Format/Info : Advanced Audio Codec
    Format profile : LC
    Codec ID : mp4a-40-2
    Duration : 1 h 46 min
    Bit rate mode : Variable
    Bit rate : 132 kb/s
    Maximum bit rate : 200 kb/s
    Channel(s) : 2 channels
    Channel positions : Front: L R
    Sampling rate : 48.0 kHz
    Frame rate : 46.875 FPS (1024 SPF)
    Compression mode : Lossy
    Stream size : 99.4 MiB (16%)
    Title : Stereo
    Encoded date : UTC 2016-07-23 01:24:27
    Tagged date : UTC 2016-07-23 01:34:49

    Menu
    ID : 3
    Codec ID : text
    Duration : 1 h 46 min
    Encoded date : UTC 2016-07-23 01:24:27
    Tagged date : UTC 2016-07-23 01:34:49
    Menu For : 1
    Duration_FirstFrame : -3110074
    Duration_LastFrame : -4673327
    00:00:00.000 : ATM 2: Folding Into Sitting
    00:26:52.110 : ATM 3: Head Through the Gap on the Stomach
    01:45:39.333 : Chapter 3
    Bit rate mode : VBR

    Screenshots








    Download link:
    Kod:
    rapidgator_net: https://rapidgator.net/file/da497ffb93b2533a9c1b5e1e04e0e90a/mqusk.South.Bend.Workshop.DVD.Set.with.Moshe.Feldenkrais.1980.part1.rar.html https://rapidgator.net/file/e5f8fd318426191f03b09754b1079246/mqusk.South.Bend.Workshop.DVD.Set.with.Moshe.Feldenkrais.1980.part2.rar.html https://rapidgator.net/file/ec2f04afeac0398c07493536642d76d2/mqusk.South.Bend.Workshop.DVD.Set.with.Moshe.Feldenkrais.1980.part3.rar.html https://rapidgator.net/file/ba6c0c995907127edf79d6978ec9ea12/mqusk.South.Bend.Workshop.DVD.Set.with.Moshe.Feldenkrais.1980.part4.rar.html https://rapidgator.net/file/9b03cfbc3e8b9cbbf06933479c593bf6/mqusk.South.Bend.Workshop.DVD.Set.with.Moshe.Feldenkrais.1980.part5.rar.html nitroflare_com: http://nitroflare.com/view/7188309B5E8CB27/mqusk.South.Bend.Workshop.DVD.Set.with.Moshe.Feldenkrais.1980.part1.rar http://nitroflare.com/view/DF6A24D9B9B5E1B/mqusk.South.Bend.Workshop.DVD.Set.with.Moshe.Feldenkrais.1980.part2.rar http://nitroflare.com/view/0A5D46D7125D089/mqusk.South.Bend.Workshop.DVD.Set.with.Moshe.Feldenkrais.1980.part3.rar http://nitroflare.com/view/C73170390CE7536/mqusk.South.Bend.Workshop.DVD.Set.with.Moshe.Feldenkrais.1980.part4.rar http://nitroflare.com/view/CD79CD14073DCDE/mqusk.South.Bend.Workshop.DVD.Set.with.Moshe.Feldenkrais.1980.part5.rar
    Links are Interchangeable - No Password - Single Extraction

  2. #2
    ye thietkelogo20588 - ait Kullanc Resmi (Avatar)
    yelik tarihi
    18.04.2019
    Ya
    35
    Mesajlar
    26
    Konular
    0
    Blm
    Bilgisayar
    Cinsiyet
    Kadn
    Tecrbe Puan
    0

    Cevap: South Bend Workshop DVD Set with Moshe Feldenkrais (1980)

    0934 150 770 Zalo - 0978 106 552 Zalo - ThietKeWebChuyen. Com

    Thiết kế logo đẹp cho web - công ty - thương hiệu - dịch vụ chỉ từ 300k theo yêu cầu tại tphcm/ to*n quốc, giá rẻ nhưng uy t*n chất lượng chuyên nghiệp









    QUY TRÌNH LÀM VIỆC
    1 G*i yêu cầu cho chúng tôi qua email [Misafirler Kayt Olmadan Link Gremezler Ltfen Kayt in Tklayn ! ], zalo/viber 0934 150 770 ( hoặc call trực tiếp hotline ). Nội dung yêu cầu l* 7 mục ở THÔNG TIN B*N CẦN CUNG CẤP ngay bên dưới
    2 Thanh toán 300k v*o t*i khoản bên dưới
    3 Thiết kế + b*n giao ( thường sau 2-3 ng*y ), chỉnh s*a hoặc demo 3 lần


    GIÁ: 300,000đ / 3 demo, 500,000đ / 6 demo, 600,000đ / 9 demo
    ( Khách l*m mấy demo thì trả bấy nhiêu tiền, mỗi demo sẽ khác nhau không trùng, giao demo xong khách chọn 1 demo ưng ý chúng tôi sẽ hỗ trợ điều chỉnh thêm )


    THÔNG TIN B*N CẦN CUNG CẤP
    1/ Tên đơn vị ( thương hiệu của bạn )
    2/ Lĩnh vực kinh doanh
    3/ Slogan của bạn
    4/ Logo bạn muốn trình b*y gì ? ( chỉ trình b*y ảnh, chỉ trình b*y chữ, trình b*y cả ảnh v* chữ, có địa chỉ hay hotline kèm không ? ... )
    5/ M*u sắc logo l* gì ?
    6/ Ý tưởng logo của bạn
    7/ Bạn muốn chúng tôi tham khảo thêm logo, hình ảnh n*o, hoặc vẽ lại hình ảnh n*y ? g*i kèm hình tham khảo ( quan trọng ).

    HỖ TRỢ NHANH:
    0934 150 770 Zalo - 0978 106 552 Zalo

    facebook.com/hohoanganh20588

    [Misafirler Kayt Olmadan Link Gremezler Ltfen Kayt in Tklayn ! ]

    Website: ThietKeWebChuyen. Com

    CHUYỂN KHOẢN
    ( Nội dung chuyển khoản ghi “số điện thoại + nội dung thanh toán” )
    Agribank -chi nhánh s*i gòn
    Chủ tk : Hồ Ho*ng Anh
    Số tk : 1600.205.230.224

    DongABank - Chi nhánh Tp.HCM
    Chủ tk : Hồ Hòang Anh
    Số tk : 010.956.4403

    Vietcombank - Chi Nhánh Tp.HCM
    Chủ tk: Hồ Hòang Anh
    Số tk: 007.1000.957.266

 

 

Konu Bilgileri

Users Browsing this Thread

u an 1 kullanc var. (0 ye ve 1 konuk)

Konuyu Favori Sayfanza Ekleyin

Konuyu Favori Sayfanza Ekleyin

Yetkileriniz

  • Konu Acma Yetkiniz Yok
  • Cevap Yazma Yetkiniz Yok
  • Eklenti Ykleme Yetkiniz Yok
  • Mesajnz Deitirme Yetkiniz Yok
  •